imdb
rating

 
Doctor Strange

Doctor Strange (2016)

Fantasy, Action, Adventure, Science Fiction

Full description
quality   hd fullhd telesync x264 bd h264

Doctor Strange 3D *2016*[IMAX EDITION][1080p.3D.Half.Over-Under.AC3 5.1.BluRay.x264-LEON 345] [Isohunt.to]

Size 8.025 GB   51 seeders     Added 2017-03-16 01:38:50

Doctor Strange 3D *2016*[IMAX EDITION]3D.Half.Over-Under.1080p.BDRip.AC3 5.1 - Leon 345
================================================
Film w wersji 3D Over-Under.
Do odtworzenia filmu WYMAGANY odpowiedni sprzęt (TV 3D).
================================================
Wersja IMAX czyli zmienne proporcje obrazu jak podałem 
w parametrach( 1.78:1/2.39:1) więc prosze nie pytać już w komentarzach
"czemu raz mam mniejsze a raz większe czarne pasy".

================================================
Dopasowane rozmiarem pod DVD9 ( do nagrania na płytke jeśli jeszcze ktoś to robi)
------------------------------------------------------------------------------

[img]image[/img]

Produkcja: USA 
Gatunek: Akcja | Fantasy | Przygodowy
Czas trwania: 114 min.
Premiera: 26.10.2016 - Polska | 20.10.2016 - Świat
Reżyseria: Scott Derrickson
Scenariusz: Jon Spaihts | Scott Derrickson

[url]http://imdb.com/title/tt1211837[/url]


"Doctor Strange" jest filmową adaptacją popularnego komiksu, stworzonego przez Stana Lee i Steve'a Ditko.Głównym bohaterem jest znany chirurg, Stephen Strange (Benedict Cumberbatch).
Jego życie wywraca się do góry nogami, gdy w wypadku samochodowym doznaje urazu rąk. Po nieudanych próbach wyleczenia szuka porady u Jonathana (Benjamin Bratt), który zdołał uleczyć się po złamaniu kręgosłupa. Zgodnie z jego wskazówkami Strange udaje się w okolice Katmandu, gdzie poznaje uczniów Wonga (Benedict Wong) i Mordo (Chiwetel Ejiofor) oraz mistrza Przedwiecznego (Tilda Swinton). Wkrótce Strange odkrywa w sobie potężną moc.

Obsada:

Benedict Cumberbatch	...	Dr. Stephen Strange
Chiwetel Ejiofor	...	Mordo
Rachel McAdams...	Christine Palmer
Benedict Wong	...	Wong
Mads Mikkelsen	...	Kaecilius
Tilda Swinton	...	The Ancient One
Michael Stuhlbarg	...	Dr. Nicodemus West
Benjamin Bratt	...	Jonathan Pangborn
Scott Adkins ...	Lucian / Strong Zealot
Zara Phythian	...	Brunette Zealot
Alaa Safi	...	Tall Zealot
Katrina Durden	...	Blonde Zealot
Topo Wresniwiro ...	Hamir
Umit Ulgen	...	Sol Rama
Linda Louise Duan	...	Tina Minoru

General

Format                         : Matroska
Format version                 : Version 2
File size                      : 7.47 GiB
Duration                       : 1h 54mn
Overall bit rate               : 9 306 Kbps
Movie name                     : Doctor.Strange.3D.HOU.BDRip.Leon345
Encoded date                   : UTC 2017-03-15 12:06:52
Writing application            : mkvmerge v5.7.0 ('The Whirlwind') built on Jul  8 2012 20:08:51
Writing library                : libebml v1.2.3 + libmatroska v1.3.0
Attachments                    : Strange.3D.jpg

Video
ID                             : 1
Format                         : AVC
Format/Info                    : Advanced Video Codec
Format profile                 : High@L4.1
Format settings, CABAC         : Yes
Format settings, ReFrames      : 4 frames
Codec ID                       : V_MPEG4/ISO/AVC
Duration                       : 1h 54mn
Bit rate                       : 8 249 Kbps
Width                          : 1 920 pixels
Height                         : 1 080 pixels
======================================
Display aspect ratio           : 16:9  (OAR 1.78:1 / 2.39:1)
======================================
Frame rate mode                : Constant
Frame rate                     : 23.976 (24000/1001) fps
Color space                    : YUV
Chroma subsampling             : 4:2:0
Bit depth                      : 8 bits
Scan type                      : Progressive
Bits/(Pixel*Frame)             : 0.166
Stream size                    : 6.50 GiB (87%)
Writing library                : x264 core
Encoding settings              : cabac=1 / ref=4 / deblock=1:-1:-1 / rc=2pass
Default                        : Yes
Forced                         : No

Audio #1
ID                             : 2
Format                         : AC-3
Format/Info                    : Audio Coding 3
Mode extension                 : CM (complete main)
Format settings, Endianness    : Big
Codec ID                       : A_AC3
Duration                       : 1h 54mn
Bit rate mode                  : Constant
Bit rate                       : 384 Kbps
Channel(s)                     : 6 channels
Channel positions              : Front: L C R, Side: L R, LFE
Sampling rate                  : 48.0 KHz
Frame rate                     : 31.250 fps (1536 spf)
Compression mode               : Lossy
Stream size                    : 316 MiB (4%)
Title                          : AC3 5.1 Dubbing PL
Language                       : Polish
Default                        : Yes
Forced                         : No

Audio #2
ID                             : 3
Format                         : AC-3
Format/Info                    : Audio Coding 3
Mode extension                 : CM (complete main)
Format settings, Endianness    : Big
Codec ID                       : A_AC3
Duration                       : 1h 54mn
Bit rate mode                  : Constant
Bit rate                       : 640 Kbps
Channel(s)                     : 6 channels
Channel positions              : Front: L C R, Side: L R, LFE
Sampling rate                  : 48.0 KHz
Frame rate                     : 31.250 fps (1536 spf)
Compression mode               : Lossy
Stream size                    : 526 MiB (7%)
Title                          : AC3 5.1 ENG
Language                       : English
Default                        : No
Forced                         : No

Text #1
ID                             : 4
Format                         : UTF-8
Codec ID                       : S_TEXT/UTF8
Codec ID/Info                  : UTF-8 Plain Text
Title                          : napisy 2D
Language                       : Polish
Default                        : No
Forced                         : No

Text #2
ID                             : 5
Format                         : UTF-8
Codec ID                       : S_TEXT/UTF8
Codec ID/Info                  : UTF-8 Plain Text
Title                          : napisy 2D
Language                       : English
Default                        : No
Forced                         : No

Text #3
ID                             : 6
Format                         : PGS
Muxing mode                    : zlib
Codec ID                       : S_HDMV/PGS
Codec ID/Info                  : Picture based subtitle format used on BDs/HD-DVDs
Title                          : napisy 3D
Language                       : Polish
Default                        : No
Forced                         : No

Text #4
ID                             : 7
Format                         : PGS
Muxing mode                    : zlib
Codec ID                       : S_HDMV/PGS
Codec ID/Info                  : Picture based subtitle format used on BDs/HD-DVDs
Title                          : napisy 3D
Language                       : English
Default                        : No
Forced                         : No

Menu
00:00:00.000                   : en:00:00:00.000
00:04:34.566                   : en:00:04:34.566
00:10:16.825                   : en:00:10:16.825
00:18:32.153                   : en:00:18:32.153
00:24:37.017                   : en:00:24:37.017
00:31:40.482                   : en:00:31:40.482
00:38:33.811                   : en:00:38:33.811
00:43:16.135                   : en:00:43:16.135
00:48:24.527                   : en:00:48:24.527
00:55:34.498                   : en:00:55:34.498
01:05:04.359                   : en:01:05:04.359
01:12:38.437                   : en:01:12:38.437
01:22:14.346                   : en:01:22:14.346
01:28:28.637                   : en:01:28:28.637
01:35:00.904                   : en:01:35:00.904
01:45:06.509                   : en:01:45:06.509

Source[thx]:
A/V - Doctor Strange (2016) [IMAX Edition] Blu-ray 3D EUR 1080p AVC DD5.1-HDCLUB
Dubbing PL - 720p.BRRip.x264.AC3 5.1-WiZARDS
DOCTOR_STRANGE.3D.HOU.BDRip.1080p.Leon345.mkv 8.025 GB
Strange.3D.jpg 103.753 KB
Torrent downloaded from agusiq-torrents.pl upload Leon345.txt 3.903 KB
Gathering some info...

Register and log in Isohunt and see no captcha anymore!

4000 symbols left
Hash 0e73a97543770c003138b041f8d0bec6acedc939

Related torrents for "Doctor Strange 3D *2016*[IMAX EDITION][1080p.3D.Half.Over-Under.AC3 5.1.BluRay.x264-LEON 345] [Isohunt.to]"

Torrent search:

x264 fullhd bd 2016