imdb
rating

6.6
Dragon Ball

Dragon Ball (1990)

Action

Full description
quality   hd x264 fullhd

Dragon Ball Super - 013-024 (BD, 720p 10-bit)

Size 5.054 GB   0 seeders     Added 2016-12-30 19:43:11

10
Source: R2 Blu-ray

Credits:

Subs: DragonTeam / Over8000, with adjustments
Timing: sangofe
QC: Chotab
Encoding: Chotab

Source vs. Encode (10-bit) vs. Encode
(8-bit):

     
     



Quote:
General
Unique ID : 241727267756455690179350369527366497987
(0xB5DAFA7424B2C0EB861A3B27AFF936C3)
Complete name : Dragon Ball Super - 013 (BD Hi10P) - Goku,
Surpass Super Saiyan God! .mkv
Format : Matroska
Format version : Version 4 / Version 2
File size : 534 MiB
Duration : 23 min 6 s
Overall bit rate : 3 228 kb/s
Movie name : Dragon Ball Super: 13 - Goku, Suprass Super Saiyan
God!
Encoded date : UTC 2016-11-30 06:29:27
Writing application : mkvmerge v9.5.0 ('Quiet
Fire') 64bit
Writing library : libebml v1.3.4 + libmatroska v1.4.5
Attachments : KingthingsClarityPTFix2.ttf / FOT-RodinPro-B_0.otf /
FOT-RodinProN-EB.otf / FuzzyBubblesROBMBold.ttf / LICA.ttf

Video
ID : 1
Format : AVC
Format/Info : Advanced Video Codec
Format profile : High [email protected]
Format settings, CABAC : Yes
Format settings, ReFrames : 9 frames
Codec ID : V_MPEG4/ISO/AVC
Duration : 23 min 6 s
Bit rate : 2 893 kb/s
Width : 1 280 pixels
Height : 720 pixels
Display aspect ratio : 16:9
Frame rate mode : Constant
Frame rate : 23.976 (24000/1001) FPS
Color space : YUV
Chroma subsampling : 4:2:0
Bit depth : 10 bits
Scan type : Progressive
Bits/(Pixel*Frame) : 0.131
Stream size : 478 MiB (90%)
Writing library : x264 core 148 r2721 72d53ab
Encoding settings : cabac=1 / ref=9 / deblock=1:-3:-3 /
analyse=0x3:0x133 / me=umh / subme=11 / psy=1 / psy_rd=0.90:0.00 /
mixed_ref=1 / me_range=64 / chroma_me=1 / trellis=2 / 8x8dct=1 /
cqm=0 / deadzone=21,11 / fast_pskip=0 / chroma_qp_offset=-2 /
threads=18 / lookahead_threads=4 / sliced_threads=0 / nr=0 /
decimate=0 / interlaced=0 / bluray_compat=0 / constrained_intra=0 /
bframes=16 / b_pyramid=2 / b_adapt=2 / b_bias=0 / direct=3 /
weightb=1 / open_gop=0 / weightp=2 / keyint=240 / keyint_min=23 /
scenecut=40 / intra_refresh=0 / rc_lookahead=240 / rc=crf /
mbtree=1 / crf=16.0 / qcomp=0.60 / qpmin=0 / qpmax=81 / qpstep=4 /
vbv_maxrate=62500 / vbv_bufsize=78125 / crf_max=0.0 / nal_hrd=none
/ filler=0 / ip_ratio=1.20 / aq=3:1.00
Language : Japanese
Default : Yes
Forced : No

Audio
ID : 2
Format : AAC
Format/Info : Advanced Audio Codec
Format profile : LC
Codec ID : A_AAC
Duration : 23 min 6 s
Bit rate : 288 kb/s
Channel(s) : 2 channels
Channel positions : Front: L R
Sampling rate : 48.0 kHz
Frame rate : 46.875 FPS (1024 spf)
Compression mode : Lossy
Delay relative to video : 20 ms
Stream size : 47.5 MiB (9%)
Language : Japanese
Default : Yes
Forced : No

Text
ID : 3
Format : ASS
Codec ID : S_TEXT/ASS
Codec ID/Info : Advanced Sub Station Alpha
Duration : 22 min 53 s
Bit rate : 100 b/s
Count of elements : 281
Compression mode : Lossless
Stream size : 16.9 KiB (0%)
Language : English
Default : Yes
Forced : Yes

Menu
00:00:00.000 : en:Opening Theme
00:01:25.085 : en:Recap
00:02:40.118 : en:Part A
00:11:09.085 : en:Part B
00:21:35.127 : en:Ending Theme
00:22:35.187 : en:Next Episode Preview
Dragon Ball Super - 013-024 (BD, 720p 10-bit)/Dragon Ball Super - 019 (BD Hi10P) - Despair Once More! Revival of Freeza, Emperor of Evil! [91316864].mkv 569.047 MB
Dragon Ball Super - 013-024 (BD, 720p 10-bit)/Dragon Ball Super - 014 (BD Hi10P) - This is All the Power I Have! The Battle of Gods' Conclusion! [023CBA03].mkv 514.865 MB
Dragon Ball Super - 013-024 (BD, 720p 10-bit)/Dragon Ball Super - 015 (BD Hi10P) - Hero Satan, Cause a Miracle! A Challenge from Outer Space [913C1288].mkv 358.279 MB
Gathering some info...

Register and log in Isohunt and see no captcha anymore!

4000 symbols left
Hash f67376f965923a6f183b7474fda323ac29de5a01

Related torrents for "Dragon Ball Super - 013-024 (BD, 720p 10-bit)"

Torrent search:

hd