Dragon Ball GT [Japanese Broadcast Audio] 11

Size 636.599 MB   0 seeders     Added 2016-12-30 19:16:05

10
Source (Video): R2 Dragon
Box
Source (Audio): Japanese TV Broadcast (Tokyo
MX)

This is a project done with love for Dragon Ball. (Yes, some
people like Dragon Ball GT). The project got started because
all official releases of Dragon Ball have not so clear audio. So
when we got our hands on the original broadcast audio, even though
it wasn't recorded in the highest possible quality, we decided
to sync it to the Dragon Boxes. And since Sangofe's a timing
nerd who's obsessed about good timing, he retimed the script.
Names have also been changed to be consistent, and occasionally
there will be added stutters, and at times even some missing
lines.

Credits:

Sound syncing: Genjo Sanzo, MizunoKamo
Timing: sangofe
QC: sangofe, MizunoKamo, Genjo Sanzo
Provider: secret until further.



Quote:
General
Unique ID : 246983160267716205290004872743506056665
(0xB9CF39F6215418EE822F76052B2A95D9)
Complete name : Dragon Ball GT  11
.mkv
Format : Matroska
Format version : Version 4 / Version 2
File size : 607 MiB
Duration : 24 min 38 s
Overall bit rate : 3 445 kb/s
Movie name : Dragon Ball GT: 11 - Luud's Curse?! Pan Gets
Turned Into a Doll
Encoded date : UTC 2016-12-01 21:42:44
Writing application : mkvmerge v9.6.0 ('Slave To Your
Mind') 64bit
Writing library : libebml v1.3.4 + libmatroska v1.4.5
Attachments : ADOBEHEITI-KAMI.TTF / SourceSansPro-Black.ttf

Video
ID : 1
Format : AVC
Format/Info : Advanced Video Codec
Format profile : [email protected]
Format settings, CABAC : Yes
Format settings, ReFrames : 16 frames
Codec ID : V_MPEG4/ISO/AVC
Duration : 24 min 38 s
Bit rate : 3 248 kb/s
Width : 720 pixels
Height : 480 pixels
Display aspect ratio : 4:3
Frame rate mode : Constant
Frame rate : 23.976 (24000/1001) FPS
Color space : YUV
Chroma subsampling : 4:2:0
Bit depth : 8 bits
Scan type : Progressive
Bits/(Pixel*Frame) : 0.392
Stream size : 572 MiB (94%)
Writing library : x264 core 148 r2721 72d53ab
Encoding settings : cabac=1 / ref=16 / deblock=1:-3:-3 /
analyse=0x3:0x133 / me=umh / subme=10 / psy=1 / psy_rd=1.05:0.00 /
mixed_ref=1 / me_range=64 / chroma_me=1 / trellis=2 / 8x8dct=1 /
cqm=0 / deadzone=21,11 / fast_pskip=0 / chroma_qp_offset=-2 /
threads=15 / lookahead_threads=1 / sliced_threads=0 / nr=0 /
decimate=0 / interlaced=0 / bluray_compat=0 / constrained_intra=0 /
bframes=6 / b_pyramid=2 / b_adapt=2 / b_bias=0 / direct=3 /
weightb=1 / open_gop=0 / weightp=2 / keyint=240 / keyint_min=23 /
scenecut=40 / intra_refresh=0 / rc_lookahead=80 / rc=crf / mbtree=1
/ crf=18.0 / qcomp=0.60 / qpmin=0 / qpmax=69 / qpstep=4 /
vbv_maxrate=62500 / vbv_bufsize=78125 / crf_max=0.0 / nal_hrd=none
/ filler=0 / ip_ratio=1.40 / aq=3:0.80
Language : Japanese
Default : Yes
Forced : No

Audio
ID : 2
Format : AAC
Format/Info : Advanced Audio Codec
Format profile : LC
Codec ID : A_AAC
Duration : 24 min 38 s
Bit rate : 192 kb/s
Channel(s) : 2 channels
Channel positions : Front: L R
Sampling rate : 48.0 kHz
Frame rate : 46.875 FPS (1024 spf)
Compression mode : Lossy
Delay relative to video : 20 ms
Stream size : 34.0 MiB (6%)
Language : Japanese
Default : Yes
Forced : No

Text
ID : 3
Format : ASS
Codec ID : S_TEXT/ASS
Codec ID/Info : Advanced Sub Station Alpha
Duration : 24 min 33 s
Bit rate : 116 b/s
Count of elements : 323
Compression mode : Lossless
Stream size : 20.9 KiB (0%)
Language : English
Default : Yes
Forced : Yes

Menu
00:00:00.000 : en:Opening Theme
00:01:48.108 : en:Recap
00:02:54.257 : en:Part A
00:12:26.579 : en:Part B
00:22:32.184 : en:Ending Theme
00:24:10.783 : en:Next Episode Preview
Dragon Ball GT [Japanese Broadcast Audio] 11 [80DAE060].mkv 636.599 MB
Gathering some info...

Register and log in Isohunt and see no captcha anymore!

4000 symbols left
Hash e00218a7f50009a445de42f1a95724b8b54d2ed5