imdb
rating

5.7
Transformers: Age of Extinction

Transformers: Age of Extinction (2014)

Action, Adventure, Science Fiction

Full description
quality   bd dvdrip hd hdtv screener x264

Transformers 4 Age of Extinction 2014 3D 1080p BluRay Half-SBS AC3-5.1 HEVC x265-LGC.mkv Verified

Size 3.026 GB   16 seeders     Added 2016-07-03 01:13:04

10
WARNING: High Efficiency Video Coding HEVC
x265

This is re-encoded with the new generation video codec HEVC. It
will probably not work on your TV or BD player unless it's a recent
one that supports x265 ! (or unless you plug a computer to your TV
via HDMI)Recommended
Windows OS: MPC-HC Player with K-Lite self updating codec pack and
MediaInfo combination for High Efficiency Video Coding HEVC x265
PLAYBACKNINITE K-Lite Codecs
Thread:
LGC
Releases
LGC Releases
Thread:
LGC
Releases
High Efficiency Video Coding HEVC
x265

ps
Play any 3D movie in 2D or3D
with KODI. Play movies through your PC. Make sure .SBS. is in the
filename and set KODI to play in 2D. To watch the movie in 3D, get
some glasses on Amazon and set KODI to play in 3D.
Transformers 4 Age of Extinction 2014 3D 1080p BluRay Half-SBS
AC3-5.1 HEVC x265-LGC.mkv
Format : Matroska
Format version : Version 2
File size : 2.82 GiB
Duration : 2h 45mn
Overall bit rate : 2 443 Kbps
Encoded date : UTC 2016-07-01T07:28:59Z
Writing application : HandBrake 0.10.5 2016021100
Writing library : Lavf55.12.0 / Lavf55.12.0
Video
ID : 1
Format : HEVC
Format/Info : High Efficiency Video Coding
Format profile : [email protected]@Main
Codec ID : V_MPEGH/ISO/HEVC
Duration : 2h 45mn
Bit rate : 1 755 Kbps
Width : 1 936 pixels
Height : 944 pixels
Display aspect ratio : 2.059
Original display aspect rat : 2.060
Frame rate mode : Constant
Frame rate : 23.976 (24000/1001) fps
Color space : YUV
Chroma subsampling : 4:2:0
Bit depth : 8 bits
Bits/(Pixel*Frame) : 0.040
Stream size : 2.02 GiB (72%)
Writing library : x265 1.9: 8bit
Encoding settings : wpp / ctu=32 / min-cu-size=16 / max-tu-size=32
/ tu-intra-depth=1 / tu-inter-depth=1 / me=0 / subme=0 / merange=57
/ no-rect / no-amp / max-merge=2 / temporal-mvp / early-skip /
rdpenalty=0 / no-tskip / no-tskip-fast / strong-intra-smoothing /
no-lossless / no-cu-lossless / no-constrained-intra / fast-intra /
open-gop / no-temporal-layers / interlace=0 / keyint=240 /
min-keyint=24 / scenecut=0 / rc-lookahead=5 / lookahead-slices=5 /
bframes=3 / bframe-bias=0 / b-adapt=0 / ref=1 / limit-refs=0 /
no-limit-modes / no-weightp / no-weightb / aq-mode=1 / qg-size=32 /
aq-strength=0.00 / cbqpoffs=0 / crqpoffs=0 / rd=2 / psy-rd=2.00 /
rdoq-level=0 / psy-rdoq=0.00 / no-signhide / deblock / no-sao /
no-sao-non-deblock / b-pyramid / cutree / no-intra-refresh / rc=2 /
pass / bitrate=1800 / qcomp=0.60 / qpmin=0 / qpmax=51 / qpstep=4 /
cplxblur=20.0 / qblur=0.5 / ipratio=1.40 / pbratio=1.30
Default : Yes
Forced : No
Color range : Limited
Color primaries : BT.709
Transfer characteristics : BT.709
Matrix coefficients : BT.709
Audio
ID : 2
Format : AC-3
Format/Info : Audio Coding 3
Mode extension : CM (complete main)
Format settings, Endianness : Big
Codec ID : A_AC3
Duration : 2h 45mn
Bit rate mode : Constant
Bit rate : 640 Kbps
Channel(s) : 6 channels
Channel positions : Front: L C R, Side: L R, LFE
Sampling rate : 48.0 KHz
Frame rate : 31.250 fps (1536 spf)
Compression mode : Lossy
Stream size : 756 MiB (26%)
Title : Surround
Language : English
Default : Yes
Forced : No
SOURCE: Torrent:
Transformers Age of
Extincti...0p BR HSBS AC3 HEVC x265-LGC


Transformers Age of Extinction 2014 3D 1080p BR HSBS
AC3 HEVC x265-LGCNov 6, 2015 in
Movies > 3D
Movies.  Verified.  2.63
GB 98CAE50341A70423E8EAD9AC258B8BEC075D5FEF
0  0
9/10   7/10   10/10
Transformers 4 Age of Extinction 2014 3D 1080p BluRay Half-SBS AC3-5.1 HEVC x265-LGC.mkv 3.026 GB
Gathering some info...

Register and log in Isohunt and see no captcha anymore!

4000 symbols left
Hash 35581e33e9dc867e18f6aacb2059b1de95a5f2af

Related torrents for "Transformers 4 Age of Extinction 2014 3D 1080p BluRay Half-SBS AC3-5.1 HEVC x265-LGC.mkv"

Torrent search:

fullhd bd 2014