imdb
rating

5.7
Last Passenger

Last Passenger (2013)

Action, Mystery, Thriller

Full description
quality   dvdrip x264 bd hd

Last Passenger 2013 720p BluRay H264 AAC-RARBG Verified

Size 1.259 GB   0 seeders     Added 2016-06-15 14:12:05

http://rarbg.to

Last.Passenger.2013.720p.BluRay.H264.AAC-RARBG
Screens :





Mediainfo :
Video
ID : 1
Format : AVC
Format/Info : Advanced Video Codec
Format profile : [email protected]
Format settings, CABAC : Yes
Format settings, ReFrames : 4 frames
Codec ID : avc1
Codec ID/Info : Advanced Video Coding
Duration : 1h 36mn
Bit rate : 1 500 Kbps
Width : 1 280 pixels
Height : 544 pixels
Display aspect ratio : 2.35:1
Frame rate mode : Constant
Frame rate : 23.976 (23976/1000) fps
Color space : YUV
Chroma subsampling : 4:2:0
Bit depth : 8 bits
Scan type : Progressive
Bits/(Pixel*Frame) : 0.090
Stream size : 1.02 GiB (87%)
Writing library : x264 core 148 r2597M e86f3a1
Encoding settings : cabac=1 / ref=4 / deblock=1:-1:-1 /
analyse=0x3:0x113 / me=umh / subme=9 / psy=1 / psy_rd=1.00:0.15 /
mixed_ref=1 / me_range=24 / chroma_me=1 / trellis=2 / 8x8dct=1 /
cqm=0 / deadzone=21,11 / fast_pskip=1 / chroma_qp_offset=-3 /
threads=32 / lookahead_threads=4 / sliced_threads=0 / nr=0 /
decimate=1 / interlaced=0 / bluray_compat=0 / constrained_intra=0 /
bframes=3 / b_pyramid=2 / b_adapt=2 / b_bias=0 / direct=3 /
weightb=1 / open_gop=0 / weightp=2 / keyint=250 / keyint_min=25 /
scenecut=40 / intra_refresh=0 / rc_lookahead=50 / rc=2pass /
mbtree=1 / bitrate=1500 / ratetol=1.0 / qcomp=0.60 / qpmin=0 /
qpmax=69 / qpstep=4 / cplxblur=20.0 / qblur=0.5 / vbv_maxrate=31250
/ vbv_bufsize=31250 / nal_hrd=none / filler=0 / ip_ratio=1.40 /
aq=3:1.00
Encoded date : UTC 2016-06-15 08:34:17
Tagged date : UTC 2016-06-15 08:34:17
Audio
ID : 2
Format : AAC
Format/Info : Advanced Audio Codec
Format profile : LC
Codec ID : 40
Duration : 1h 36mn
Bit rate mode : Constant
Bit rate : 224 Kbps
Channel(s) : 2 channels
Channel(s)_Original : 6 channels
Channel positions : Front: L C R, Side: L R, LFE
Sampling rate : 48.0 KHz
Frame rate : 46.875 fps (1024 spf)
Compression mode : Lossy
Stream size : 155 MiB (13%)
Language : English
Default : Yes
Alternate group : 1
Encoded date : UTC 2016-06-15 08:34:17
Tagged date : UTC 2016-06-15 08:34:17
Last.Passenger.2013.720p.BluRay.H264.AAC-RARBG/Last.Passenger.2013.720p.BluRay.H264.AAC-RARBG.mp4 1.258 GB
Last.Passenger.2013.720p.BluRay.H264.AAC-RARBG/Last.Passenger.2013.720p.BluRay.H264.AAC-RARBG.nfo 4.064 KB
Last.Passenger.2013.720p.BluRay.H264.AAC-RARBG/RARBG.COM.mp4 1.017 MB
Gathering some info...

Register and log in Isohunt and see no captcha anymore!

4000 symbols left
Hash 188372052e25d3349d78c95c5324980a90b97ebe

Related torrents for "Last Passenger 2013 720p BluRay H264 AAC-RARBG"

Torrent search:

h264 hd bd 2013