imdb
rating

8.3
Heartland

Heartland (2007)

Drama

Full description

Heartland CA S09E18 HDTV x264-FLEET[rartv]

Size 376.574 MB   1 seeders     Added 2016-03-23 10:19:04

http://rarbg.to
Heartland.CA.S09E18.HDTV.x264-FLEET
Screens :
Mediainfo :
Video
ID : 1
Format : AVC
Format/Info : Advanced Video Codec
Format profile : [email protected]
Format settings, CABAC : Yes
Format settings, ReFrames : 5 frames
Codec ID : avc1
Codec ID/Info : Advanced Video Coding
Duration : 43mn 53s
Bit rate : 1 006 Kbps
Width : 720 pixels
Height : 404 pixels
Display aspect ratio : 16:9
Frame rate mode : Constant
Frame rate : 23.976 (24000/1001) fps
Color space : YUV
Chroma subsampling : 4:2:0
Bit depth : 8 bits
Scan type : Progressive
Bits/(Pixel*Frame) : 0.144
Stream size : 316 MiB (88%)
Writing library : x264 core 148 r2665 a01e339
Encoding settings : cabac=1 / ref=5 / deblock=1:0:0 /
analyse=0x3:0x113 / me=umh / subme=8 / psy=1 / psy_rd=1.00:0.00 /
mixed_ref=1 / me_range=16 / chroma_me=1 / trellis=1 / 8x8dct=1 /
cqm=0 / deadzone=21,11 / fast_pskip=1 / chroma_qp_offset=-2 /
threads=13 / lookahead_threads=2 / sliced_threads=0 / nr=0 /
decimate=1 / interlaced=0 / bluray_compat=0 / constrained_intra=0 /
bframes=3 / b_pyramid=2 / b_adapt=2 / b_bias=0 / direct=3 /
weightb=1 / open_gop=0 / weightp=2 / keyint=250 / keyint_min=23 /
scenecut=40 / intra_refresh=0 / rc_lookahead=50 / rc=crf / mbtree=1
/ crf=19.0 / qcomp=0.60 / qpmin=0 / qpmax=69 / qpstep=4 /
ip_ratio=1.40 / aq=1:1.00
Encoded date : UTC 2011-09-08 11:43:25
Tagged date : UTC 2011-09-08 11:43:25
Color range : Limited
Matrix coefficients : BT.709
Audio
ID : 2
Format : AAC
Format/Info : Advanced Audio Codec
Format profile : LC
Codec ID : 40
Duration : 43mn 53s
Bit rate mode : Variable
Bit rate : 132 Kbps
Maximum bit rate : 200 Kbps
Channel(s) : 2 channels
Channel positions : Front: L R
Sampling rate : 48.0 KHz
Frame rate : 46.875 fps (1024 spf)
Compression mode : Lossy
Stream size : 41.4 MiB (12%)
Encoded date : UTC 2011-09-08 11:43:25
Tagged date : UTC 2011-09-08 11:43:25
Heartland.CA.S09E18.HDTV.x264-FLEET[rarbg]/Heartland.CA.S09E18.HDTV.x264-FLEET.mp4 376.573 MB
Heartland.CA.S09E18.HDTV.x264-FLEET[rarbg]/RARBG.com.txt 34 B
Heartland.CA.S09E18.HDTV.x264-FLEET[rarbg]/heartland.ca.s09e18.hdtv.x264-fleet.nfo 696 B
Gathering some info...

Register and log in Isohunt and see no captcha anymore!

4000 symbols left
Hash d5e21f44ca776ad30f9b401e5264442265ded5d4

Related torrents for "Heartland CA S09E18 HDTV x264-FLEET[rartv]"