imdb
rating

8.3
Heartland

Heartland (2007)

Drama

Full description

Heartland CA S09E18 720p HDTV x264-FLEET[rartv]

Size 1.375 GB   0 seeders     Added 2016-03-23 10:19:04

http://rarbg.to
Heartland.CA.S09E18.720p.HDTV.x264-FLEET
Screens :
Mediainfo :
Video
ID : 1
Format : AVC
Format/Info : Advanced Video Codec
Format profile : [email protected]
Format settings, CABAC : Yes
Format settings, ReFrames : 5 frames
Codec ID : V_MPEG4/ISO/AVC
Duration : 43mn 53s
Bit rate : 3 709 Kbps
Width : 1 280 pixels
Height : 720 pixels
Display aspect ratio : 16:9
Frame rate mode : Constant
Frame rate : 23.976 (24000/1001) fps
Color space : YUV
Chroma subsampling : 4:2:0
Bit depth : 8 bits
Scan type : Progressive
Bits/(Pixel*Frame) : 0.168
Stream size : 1.14 GiB (89%)
Writing library : x264 core 148 r2665 a01e339
Encoding settings : cabac=1 / ref=5 / deblock=1:-2:-2 /
analyse=0x3:0x113 / me=umh / subme=8 / psy=1 / psy_rd=1.05:0.00 /
mixed_ref=1 / me_range=16 / chroma_me=1 / trellis=1 / 8x8dct=1 /
cqm=0 / deadzone=21,11 / fast_pskip=1 / chroma_qp_offset=-2 /
threads=22 / lookahead_threads=3 / sliced_threads=0 / nr=0 /
decimate=1 / interlaced=0 / bluray_compat=0 / constrained_intra=0 /
bframes=3 / b_pyramid=2 / b_adapt=2 / b_bias=0 / direct=3 /
weightb=1 / open_gop=0 / weightp=2 / keyint=250 / keyint_min=23 /
scenecut=40 / intra_refresh=0 / rc_lookahead=50 / rc=crf / mbtree=1
/ crf=18.0 / qcomp=0.60 / qpmin=0 / qpmax=69 / qpstep=4 /
ip_ratio=1.40 / aq=1:0.70
Language : English
Default : Yes
Forced : No
Audio
ID : 2
Format : AC-3
Format/Info : Audio Coding 3
Mode extension : CM (complete main)
Format settings, Endianness : Big
Codec ID : A_AC3
Duration : 43mn 53s
Bit rate mode : Constant
Bit rate : 384 Kbps
Channel(s) : 6 channels
Channel positions : Front: L C R, Side: L R, LFE
Sampling rate : 48.0 KHz
Frame rate : 31.250 fps (1536 spf)
Compression mode : Lossy
Stream size : 121 MiB (9%)
Language : English
Default : Yes
Forced : No
Text
ID : 3
Format : UTF-8
Codec ID : S_TEXT/UTF8
Codec ID/Info : UTF-8 Plain Text
Title : English
Language : English
Default : Yes
Forced : No
Heartland.CA.S09E18.720p.HDTV.x264-FLEET[rarbg]/Heartland.CA.S09E18.720p.HDTV.x264-FLEET.mkv 1.375 GB
Heartland.CA.S09E18.720p.HDTV.x264-FLEET[rarbg]/RARBG.com.txt 34 B
Heartland.CA.S09E18.720p.HDTV.x264-FLEET[rarbg]/heartland.ca.s09e18.720p.hdtv.x264-fleet.nfo 696 B
Gathering some info...

Register and log in Isohunt and see no captcha anymore!

4000 symbols left
Hash ccba7753f112e34c1d9aa34611e1d5935ccbb9fe

Related torrents for "Heartland CA S09E18 720p HDTV x264-FLEET[rartv]"