Moonshiners S05E14 Virgin Whiskey HDTV x264-CRiMSON[rartv]

Size 406.228 MB   0 seeders     Added 2016-03-23 04:18:02

http://rarbg.to
Moonshiners.S05E14.Virgin.Whiskey.HDTV.x264-CRiMSON
Screens :
Mediainfo :
Video
ID : 1
Format : AVC
Format/Info : Advanced Video Codec
Format profile : [email protected]
Format settings, CABAC : Yes
Format settings, ReFrames : 5 frames
Codec ID : avc1
Codec ID/Info : Advanced Video Coding
Duration : 41mn 2s
Bit rate : 1 188 Kbps
Maximum bit rate : 4 898 Kbps
Width : 720 pixels
Height : 404 pixels
Display aspect ratio : 16:9
Frame rate mode : Constant
Frame rate : 29.970 (30000/1001) fps
Color space : YUV
Chroma subsampling : 4:2:0
Bit depth : 8 bits
Scan type : Progressive
Bits/(Pixel*Frame) : 0.136
Stream size : 349 MiB (90%)
Writing library : x264 core 148 r2665 a01e339
Encoding settings : cabac=1 / ref=5 / deblock=1:-1:-1 /
analyse=0x3:0x113 / me=umh / subme=8 / psy=1 / psy_rd=1.00:0.15 /
mixed_ref=1 / me_range=16 / chroma_me=1 / trellis=1 / 8x8dct=1 /
cqm=0 / deadzone=21,11 / fast_pskip=1 / chroma_qp_offset=-3 /
threads=6 / lookahead_threads=1 / sliced_threads=0 / nr=0 /
decimate=1 / interlaced=0 / bluray_compat=0 / constrained_intra=0 /
bframes=3 / b_pyramid=2 / b_adapt=2 / b_bias=0 / direct=3 /
weightb=1 / open_gop=0 / weightp=2 / keyint=300 / keyint_min=29 /
scenecut=40 / intra_refresh=0 / rc_lookahead=50 / rc=crf / mbtree=1
/ crf=21.0 / qcomp=0.60 / qpmin=0 / qpmax=69 / qpstep=4 /
ip_ratio=1.40 / aq=1:1.00
Encoded date : UTC 2016-03-18 00:23:16
Tagged date : UTC 2016-03-18 01:10:18
Color range : Limited
Color primaries : BT.709
Matrix coefficients : BT.709
Audio
ID : 2
Format : AAC
Format/Info : Advanced Audio Codec
Format profile : LC
Codec ID : 40
Duration : 41mn 2s
Bit rate mode : Variable
Bit rate : 127 Kbps
Maximum bit rate : 154 Kbps
Channel(s) : 2 channels
Channel positions : Front: L R
Sampling rate : 48.0 KHz
Frame rate : 46.875 fps (1024 spf)
Compression mode : Lossy
Stream size : 37.3 MiB (10%)
Encoded date : UTC 2016-03-18 00:25:22
Tagged date : UTC 2016-03-18 01:10:18
Moonshiners.S05E14.Virgin.Whiskey.HDTV.x264-CRiMSON[rarbg]/Moonshiners.S05E14.Virgin.Whiskey.HDTV.x264-CRiMSON.mp4 406.227 MB
Moonshiners.S05E14.Virgin.Whiskey.HDTV.x264-CRiMSON[rarbg]/RARBG.com.txt 34 B
Moonshiners.S05E14.Virgin.Whiskey.HDTV.x264-CRiMSON[rarbg]/moonshiners.s05e14.virgin.whiskey.hdtv.x264-crimson.nfo 379 B
Gathering some info...

Register and log in Isohunt and see no captcha anymore!

4000 symbols left
Hash 75cdef6df06f652cba4b4c2196bf7a030072543a