Heartland Poker Tour

Heartland Poker Tour

Full description

Heartland CA S09E16 720p HDTV x264-KILLERS[rartv]

Size 1.257 GB   2 seeders     Added 2016-03-07 20:07:03

http://rarbg.to
Heartland.CA.S09E16.720p.HDTV.x264-KILLERS
Screens :
Mediainfo :
Video
ID : 1
Format : AVC
Format/Info : Advanced Video Codec
Format profile : [email protected]
Format settings, CABAC : Yes
Format settings, ReFrames : 5 frames
Codec ID : V_MPEG4/ISO/AVC
Duration : 44mn 5s
Bit rate : 3 341 Kbps
Width : 1 280 pixels
Height : 720 pixels
Display aspect ratio : 16:9
Frame rate mode : Constant
Frame rate : 23.976 (24000/1001) fps
Color space : YUV
Chroma subsampling : 4:2:0
Bit depth : 8 bits
Scan type : Progressive
Bits/(Pixel*Frame) : 0.151
Stream size : 1.03 GiB (88%)
Writing library : x264 core 148 r2665 a01e339
Encoding settings : cabac=1 / ref=5 / deblock=1:0:0 /
analyse=0x3:0x113 / me=umh / subme=8 / psy=1 / psy_rd=1.00:0.00 /
mixed_ref=1 / me_range=16 / chroma_me=1 / trellis=1 / 8x8dct=1 /
cqm=0 / deadzone=21,11 / fast_pskip=1 / chroma_qp_offset=-2 /
threads=22 / lookahead_threads=3 / sliced_threads=0 / nr=0 /
decimate=1 / interlaced=0 / bluray_compat=0 / constrained_intra=0 /
bframes=3 / b_pyramid=2 / b_adapt=2 / b_bias=0 / direct=3 /
weightb=1 / open_gop=0 / weightp=2 / keyint=250 / keyint_min=23 /
scenecut=40 / intra_refresh=0 / rc_lookahead=50 / rc=crf / mbtree=1
/ crf=18.0 / qcomp=0.60 / qpmin=0 / qpmax=69 / qpstep=4 /
ip_ratio=1.40 / aq=1:1.00
Language : English
Default : Yes
Forced : No
Color range : Limited
Matrix coefficients : BT.709
Audio
ID : 2
Format : AC-3
Format/Info : Audio Coding 3
Mode extension : CM (complete main)
Format settings, Endianness : Big
Codec ID : A_AC3
Duration : 44mn 5s
Bit rate mode : Constant
Bit rate : 384 Kbps
Channel(s) : 6 channels
Channel positions : Front: L C R, Side: L R, LFE
Sampling rate : 48.0 KHz
Frame rate : 31.250 fps (1536 spf)
Compression mode : Lossy
Stream size : 121 MiB (10%)
Default : Yes
Forced : No
Heartland.CA.S09E16.720p.HDTV.x264-KILLERS[rarbg]/Heartland.CA.S09E16.720p.HDTV.x264-KILLERS.mkv 1.257 GB
Heartland.CA.S09E16.720p.HDTV.x264-KILLERS[rarbg]/RARBG.com.txt 34 B
Heartland.CA.S09E16.720p.HDTV.x264-KILLERS[rarbg]/heartland.ca.s09e16.720p.hdtv.x264-killers.nfo 10.875 KB
Gathering some info...

Register and log in Isohunt and see no captcha anymore!

4000 symbols left
Hash ff24fbc1cccf3fc83f85e70e297f4091cd3bd4e0

Related torrents for "Heartland CA S09E16 720p HDTV x264-KILLERS[rartv]"

Torrent search:

x264 hdtv season 09 hd episode 16