Bunkd (Bunk'd) S01E10 Counselors' Night Off iTunes 1080p-DCMagic

Size 979.073 MB   0 seeders     Added 2016-01-11 08:41:03

Bunk'd:
-----------------------------------------------------------------------------------------------------
About this episode: Xander invites Emma to a "Counselors Night Out" party leaving Ravi in charge back at camp.
-----------------------------------------------------------------------------------------------------
Video
ID : 1
Format : AVC
Format/Info : Advanced Video Codec
Format profile : [email protected]
Format settings, CABAC : Yes
Format settings, ReFrames : 4 frames
Codec ID : avc1
Codec ID/Info : Advanced Video Coding
Duration : 22mn 51s
Bit rate : 5 164 Kbps
Width : 1 920 pixels
Height : 1 080 pixels
Display aspect ratio : 16:9
Frame rate mode : Constant
Frame rate : 23.976 (24000/1001) fps
Color space : YUV
Chroma subsampling : 4:2:0
Bit depth : 8 bits
Scan type : Progressive
Bits/(Pixel*Frame) : 0.104
Stream size : 844 MiB (90%)
Title : Core Media Video
Language : English
Encoded date : UTC 2016-01-06 03:19:50
Tagged date : UTC 2016-01-06 03:19:54
Color range : Limited
Color primaries : BT.709
Transfer characteristics : BT.709
Matrix coefficients : BT.709
Audio #1
ID : 2
Format : AAC
Format/Info : Advanced Audio Codec
Format profile : LC
Codec ID : 40
Duration : 22mn 51s
Source duration : 22mn 51s
Bit rate mode : Variable
Bit rate : 160 Kbps
Maximum bit rate : 256 Kbps
Channel(s) : 2 channels
Channel positions : Front: L R
Sampling rate : 48.0 KHz
Frame rate : 46.875 fps (1024 spf)
Compression mode : Lossy
Stream size : 25.5 MiB (3%)
Source stream size : 25.5 MiB (3%)
Title : Core Media Audio
Language : English
Default : Yes
Alternate group : 1
Encoded date : UTC 2016-01-06 03:19:50
Tagged date : UTC 2016-01-06 03:19:54
Fallback From : 4
Audio #2
ID : 4
Format : AC-3
Format/Info : Audio Coding 3
Mode extension : CM (complete main)
Format settings, Endianness : Big
Codec ID : ac-3
Duration : 22mn 51s
Bit rate mode : Constant
Bit rate : 384 Kbps
Channel(s) : 6 channels
Channel positions : Front: L C R, Side: L R, LFE
Sampling rate : 48.0 KHz
Frame rate : 31.250 fps (1536 spf)
Bit depth : 16 bits
Compression mode : Lossy
Stream size : 62.8 MiB (7%)
Title : Core Media Audio
Language : English
Default : Inherited From: 2
Alternate group : 1
Encoded date : UTC 2016-01-06 03:19:50
Tagged date : UTC 2016-01-06 03:19:54
Fallback To : 2
Text
ID : 3-CC1
Format : EIA-608
Muxing mode : Final Cut
Codec ID : c608
Duration : 22mn 45s
Bit rate mode : Constant
Stream size : 0.00 Byte (0%)
Title : Core Media Closed Caption
Language : English
Forced : No
Encoded date : UTC 2016-01-06 03:19:50
Tagged date : UTC 2016-01-06 03:19:54
-----------------------------------------------------------------------------------------------------
Screenshots:
Bunkd.S01E10.Counselors.Night.Off.iT1080p.DCMagic.mp4 979.073 MB
Gathering some info...

Register and log in Isohunt and see no captcha anymore!

4000 symbols left
Hash c0e0437f213a1eb4fbda7c552175e3715e2131a3