imdb
rating

5.7
Transformers: Age of Extinction

Transformers: Age of Extinction (2014)

Action, Adventure, Science Fiction

Full description
quality   bd dvdrip hd hdtv screener x264

Transformers 4 - L'era dell'estinzione (2014), [BDrip 720p - H264 - Ita Eng Ac3 - Sub Ita Eng] TNTvillage by nicola939 [Isohunt.to] Verified

Size 5.304 GB   22 seeders     Added 2015-07-17 01:24:27

[center]

http://forum.tntvillage.scambioetico.org/index.php?showtopic=461724

[IMG]image[/IMG]


[color=blue][b]Transformers 4 - L'era dell'estinzione (2014)[/b][/color]



[IMG]image[/IMG]

Titolo originale: Transformers: Age of Extinction
Nazionalità: USA
Anno: 2014
Genere: Azione, Fantascienza, Avventura, Thriller
Regia: Michael Bay
Durata: 165 min


[IMG]image[/IMG]

Mark Wahlberg: Cade Yeager
Nicola Peltz: Tessa Yeager
Jack Reynor: Shane Dyson
Stanley Tucci: Joshua Joyce
Kelsey Grammer: Harold Attinger
Sophia Myles: Darcy Tyril
T. J. Miller: Lucas Flannery
Titus Welliver: James Savoy
Li Bingbing: Su Yueming
James Bachman: Gill Wembley


[IMG]image[/IMG]

Quattro anni dopo l'ultima grande battaglia tra i robot che ha lasciato l'umanità sconcertata, un meccanico e sua figlia scoprono qualcosa che attira l'attenzione di un paranoico ufficiale governativo e di nuovi e vecchi Transformers, pronti a minacciare ancora una volta la Terra.


[IMG]image[/IMG]

[URL=http://i.imgur.com/0xfQFJc.png][IMG]image[/IMG][/URL][URL=http://i.imgur.com/qtcv2WG.png][IMG]image[/IMG][/URL][URL=http://i.imgur.com/Sdl5R37.png][IMG]image[/IMG][/URL][URL=http://i.imgur.com/5ZucsQB.png][IMG]image[/IMG][/URL]
[URL=http://i.imgur.com/r5SaqDf.png][IMG]image[/IMG][/URL][URL=http://i.imgur.com/QeiLXNl.png][IMG]image[/IMG][/URL][URL=http://i.imgur.com/bN9qFGZ.png][IMG]image[/IMG][/URL][URL=http://i.imgur.com/W2vNWn0.png][IMG]image[/IMG][/URL]


[IMG]image[/IMG]

[spoiler]

General
Unique ID                   : 203431164453381460000244420743245410473 (0x990B6AC8A75BC911B5EA55F1256130A9)
Complete name               : E:\FILM PRONTI ALLA CONDIVISIONE\Transformers 4 - L Era Dell Estinzione 720p.mkv
Format                      : Matroska
Format version              : Version 4 / Version 2
File size                   : 4.94 GiB
Duration                    : 2h 45mn
Overall bit rate            : 4 283 Kbps
Encoded date                : UTC 2015-07-08 15:59:39
Writing application         : mkvmerge v8.1.0 ('Psychedelic Postcard') 64bit
Writing library             : libebml v1.3.1 + libmatroska v1.4.2
Attachements                : cover.png / small_cover.png
DURATION                    : 02:35:41.832000000
NUMBER_OF_FRAMES            : 2498
NUMBER_OF_BYTES             : 78569
_STATISTICS_WRITING_APP     : mkvmerge v8.1.0 ('Psychedelic Postcard') 64bit
_STATISTICS_WRITING_DATE_UT : 2015-07-08 15:59:39
_STATISTICS_TAGS            : BPS DURATION NUMBER_OF_FRAMES NUMBER_OF_BYTES

Video
ID                          : 1
Format                      : AVC
Format/Info                 : Advanced Video Codec
Format profile              : [email protected]
Format settings, CABAC      : Yes
Format settings, ReFrames   : 5 frames
Codec ID                    : V_MPEG4/ISO/AVC
Duration                    : 2h 45mn
Bit rate                    : 3 000 Kbps
Width                       : 1 280 pixels
Height                      : 534 pixels
Display aspect ratio        : 2.40:1
Original display aspect rat : 2.40:1
Frame rate mode             : Constant
Frame rate                  : 23.976 fps
Color space                 : YUV
Chroma subsampling          : 4:2:0
Bit depth                   : 8 bits
Scan type                   : Progressive
Bits/(Pixel*Frame)          : 0.183
Stream size                 : 3.37 GiB (68%)
Writing library             : x264 core 142 r2479 dd79a61
Encoding settings           : cabac=1 / ref=5 / deblock=1:0:0 / analyse=0x3:0x113 / me=umh / subme=8 / psy=1 / psy_rd=1.00:0.00 / mixed_ref=1 / me_range=16 / chroma_me=1 / trellis=1 / 8x8dct=1 / cqm=0 / deadzone=21,11 / fast_pskip=1 / chroma_qp_offset=-2 / threads=12 / lookahead_threads=2 / sliced_threads=0 / nr=0 / decimate=1 / interlaced=0 / bluray_compat=0 / constrained_intra=0 / bframes=3 / b_pyramid=2 / b_adapt=2 / b_bias=0 / direct=3 / weightb=1 / open_gop=0 / weightp=2 / keyint=240 / keyint_min=24 / scenecut=40 / intra_refresh=0 / rc_lookahead=50 / rc=2pass / mbtree=1 / bitrate=3000 / ratetol=1.0 / qcomp=0.60 / qpmin=0 / qpmax=69 / qpstep=4 / cplxblur=20.0 / qblur=0.5 / vbv_maxrate=62500 / vbv_bufsize=78125 / nal_hrd=none / filler=0 / ip_ratio=1.40 / aq=1:1.00
Language                    : Italian
Default                     : Yes
Forced                      : No
Color range                 : Limited
Color primaries             : BT.709
Transfer characteristics    : BT.709
Matrix coefficients         : BT.709
DURATION                    : 02:45:07.272000000
NUMBER_OF_FRAMES            : 237537
NUMBER_OF_BYTES             : 3714595877
_STATISTICS_WRITING_APP     : mkvmerge v8.1.0 ('Psychedelic Postcard') 64bit
_STATISTICS_WRITING_DATE_UT : 2015-07-08 15:59:39
_STATISTICS_TAGS            : BPS DURATION NUMBER_OF_FRAMES NUMBER_OF_BYTES

Audio #1
ID                          : 2
Format                      : AC-3
Format/Info                 : Audio Coding 3
Mode extension              : CM (complete main)
Format settings, Endianness : Big
Codec ID                    : A_AC3
Duration                    : 2h 45mn
Bit rate mode               : Constant
Bit rate                    : 640 Kbps
Channel(s)                  : 6 channels
Channel positions           : Front: L C R, Side: L R, LFE
Sampling rate               : 48.0 KHz
Compression mode            : Lossy
Delay relative to video     : -83ms
Stream size                 : 756 MiB (15%)
Language                    : Italian
Default                     : Yes
Forced                      : No

Audio #2
ID                          : 3
Format                      : AC-3
Format/Info                 : Audio Coding 3
Mode extension              : CM (complete main)
Format settings, Endianness : Big
Codec ID                    : A_AC3
Duration                    : 2h 45mn
Bit rate mode               : Constant
Bit rate                    : 640 Kbps
Channel(s)                  : 6 channels
Channel positions           : Front: L C R, Side: L R, LFE
Sampling rate               : 48.0 KHz
Compression mode            : Lossy
Delay relative to video     : -83ms
Stream size                 : 756 MiB (15%)
Language                    : English
Default                     : No
Forced                      : No

Text #1
ID                          : 4
Format                      : UTF-8
Codec ID                    : S_TEXT/UTF8
Codec ID/Info               : UTF-8 Plain Text
Title                       : Forced
Language                    : Italian
Default                     : Yes
Forced                      : Yes

Text #2
ID                          : 5
Format                      : UTF-8
Codec ID                    : S_TEXT/UTF8
Codec ID/Info               : UTF-8 Plain Text
Language                    : Italian
Default                     : No
Forced                      : No

Text #3
ID                          : 6
Format                      : UTF-8
Codec ID                    : S_TEXT/UTF8
Codec ID/Info               : UTF-8 Plain Text
Title                       : Forced
Language                    : English
Default                     : No
Forced                      : No

Text #4
ID                          : 7
Format                      : UTF-8
Codec ID                    : S_TEXT/UTF8
Codec ID/Info               : UTF-8 Plain Text
Language                    : English
Default                     : No
Forced                      : No

Text #5
ID                          : 8
Format                      : UTF-8
Codec ID                    : S_TEXT/UTF8
Codec ID/Info               : UTF-8 Plain Text
Title                       : Not Hearing
Language                    : English
Default                     : No
Forced                      : No

Menu
00:00:00.000                : en:00:00:00.000
00:06:51.578                : en:00:06:51.578
00:14:33.581                : en:00:14:33.581
00:21:37.463                : en:00:21:37.463
00:30:13.395                : en:00:30:13.395
00:38:45.990                : en:00:38:45.990
00:46:08.057                : en:00:46:08.057
00:51:39.513                : en:00:51:39.513
00:59:09.337                : en:00:59:09.337
01:07:48.648                : en:01:07:48.648
01:15:14.552                : en:01:15:14.552
01:23:25.292                : en:01:23:25.292
01:29:14.724                : en:01:29:14.724
01:37:16.956                : en:01:37:16.956
01:44:35.436                : en:01:44:35.436
01:51:25.053                : en:01:51:25.053
01:57:47.936                : en:01:57:47.936
02:04:48.481                : en:02:04:48.481
02:12:35.865                : en:02:12:35.865
02:21:04.206                : en:02:21:04.206
02:28:48.670                : en:02:28:48.670
02:37:09.629                : en:02:37:09.629


[/spoiler]

[/center]
Transformers 4 - L Era Dell Estinzione 720p.mkv 5.304 GB
Gathering some info...

Register and log in Isohunt and see no captcha anymore!

4000 symbols left
Hash 19eeccdf4f0c5375334c8b16e23eaa7fdaf541fe

Related torrents for "Transformers 4 - L'era dell'estinzione (2014), [BDrip 720p - H264 - Ita Eng Ac3 - Sub Ita Eng] TNTvillage by nicola939 [Isohunt.to]"

Torrent search:

italian english h264 hd bd 2014