imdb
rating

9.5
Game of Thrones

Game of Thrones (2011)

Sci-Fi & Fantasy, Action & Adventure, Drama

Full description

Game of Thrones S04E06 1080i HDTV MPEG2 DD5.1-CtrlHD[rartv] Verified

Size 5.482 GB   0 seeders     Added 2014-05-12 10:42:01

Game of Thrones S04E06 1080i HDTV MPEG2 DD5.1-CtrlHD



Title: Game of Thrones (TV Series 2011– )
IMDB Rating: 9.5/10
Genres: Adventure , Drama , Fantasy 
Actors: Peter Dinklage , Lena Headey , Kit Harington , Emilia Clarke , Maisie Williams , Sophie Turner , Iain Glen , Nikolaj Coster-Waldau , Charles Dance , Jack Gleeson , Isaac Hempstead Wright , Alfie Allen , Michelle Fairley , Rory McCann , Aidan Gillen , John Bradley , Richard Madden , Kristian Nairn , Jerome Flynn , Conleth Hill , Gwendoline Christie , Julian Glover , Ian McElhinney , Sibel Kekilli , Mark Stanley , Natalie Dormer , Joe Dempsie , Stephen Dillane , Rose Leslie , Liam Cunningham , Finn Jones
Runtime: 60
Year: 2011
Plot: 
Nine noble families fight for control of the mythical land of Westeros. Political and sexual intrigue is pervasive. Robert Baratheon| King of Westeros| asks his old
friend Eddard| Lord Stark| to serve as Hand of the King| or highest official. Secretly warned that the previous Hand was assassinated| Eddard accepts in order to
investigate further. Meanwhile the Queen's family| the Lannisters| may be hatching a plot to take power. Across the sea| the last members of the previous and deposed
ruling family| the Targaryens| are also scheming to regain the throne. The friction between the houses Stark| Lannister| Baratheon and Targaryen and with the
remaining great houses Greyjoy| Tully| Arryn|Tyrell and Martell leads to full-scale war. All while a very ancient evil awakens in the farthest north. Amidst the war
and political confusion| a neglected military order of misfits| the Night's Watch| is all that stands between the realms of men and icy horrors beyond. 
 
Format : MPEG-TS
File size : 5.11 GiB
Duration : 53mn 10s
Overall bit rate mode : Variable
Overall bit rate : 13.7 Mbps

Video
ID : 33 (0x21)
Menu ID : 1 (0x1)
Format : MPEG Video
Format version : Version 2
Format profile : [email protected]
Format settings, BVOP : Yes
Format settings, Matrix : Default
Format settings, GOP : Variable
Codec ID : 2
Duration : 53mn 10s
Bit rate mode : Variable
Bit rate : 12.7 Mbps
Maximum bit rate : 38.8 Mbps
Width : 1 920 pixels
Height : 1 080 pixels
Display aspect ratio : 16:9
Frame rate : 29.970 fps
Color space : YUV
Chroma subsampling : 4:2:0
Bit depth : 8 bits
Compression mode : Lossy
Bits/(Pixel*Frame) : 0.204
Stream size : 4.71 GiB (92%)

Audio
ID : 36 (0x24)
Menu ID : 1 (0x1)
Format : AC-3
Format/Info : Audio Coding 3
Mode extension : CM (complete main)
Format settings, Endianness : Big
Codec ID : 129
Duration : 53mn 10s
Bit rate mode : Constant
Bit rate : 384 Kbps
Channel(s) : 2 channels
Channel positions : Front: L R
Sampling rate : 48.0 KHz
Bit depth : 16 bits
Compression mode : Lossy
Stream size : 146 MiB (3%)
Language : English

File Size Processed: 5.11 GB, Play Time: 00h:53m:10s
1920 x 1080, 29.97 fps (24.82 fps Telecine), 38.80 Mbps (12.97 Mbps Average).
Average Video Quality: 63.81 KB/Frame, 0.25 Bits/Pixel.
AC3 Audio: 3/2 Channels (L, C, R, SL, SR) + LFE, 48.0 kHz, 384 kbps.
Dialog Normalization: -24.0 dB, Center Mix Level: -3.0 dB, Surround Mix Level: -3.0 dB
0 of 79175 video frames found with errors.
0 of 99702 audio frames found with errors.
0 corrupted video bytes in file.
0.000000 seconds of video timestamp gaps.
0.000000 seconds of audio timestamp gaps.

Screens:





Game of Thrones S04E06 1080i HDTV MPEG2 DD5.1-CtrlHD[rartv]/Game of Thrones S04E06 1080i HDTV MPEG2 DD5.1-CtrlHD.ts 5.482 GB
Game of Thrones S04E06 1080i HDTV MPEG2 DD5.1-CtrlHD[rartv]/RARBG.com.txt 34 B
Gathering some info...

Register and log in Isohunt and see no captcha anymore!

4000 symbols left
Hash 831c5959ea826968b7d005e70fa125fa6d01f45b

Related torrents for "Game of Thrones S04E06 1080i HDTV MPEG2 DD5.1-CtrlHD[rartv]"

Torrent search:

season 04 hdtv episode 06