dancerinthedarkaxmen | Nhất Chi Mai | Sword Lotus

Movies - Other

Annabelle: Creation (2017) HDCAM Xvid - Koshara avi

  • Download 5x Faster
  • Download torrent
  • Direct Download
  • Rate this torrent +  |  -

Torrent info

Name:Annabelle: Creation (2017) HDCAM Xvid - Koshara avi

Total Size: 1.37 GB

Magnet: Magnet Link

Seeds: 537

Leechers: 12

Stream: Watch Full Movie @ Movie4u

Last Updated: 2017-10-09 12:31:02 (Update Now)

Torrent added: 2017-08-13 08:30:11



VPN For Torrents

Torrent Files List


Annabelle: Creation (2017) HDCAM Xvid - Koshara.avi (Size: 1.37 GB) (Files: 1)

 Annabelle: Creation (2017) HDCAM Xvid - Koshara.avi

1.37 GB
 

tracker

leech seeds
 

Torrent description

screens:

http://imgmak.com/7aC

http://imgmak.com/7aK

http://imgmak.com/7aT

Format : AVI
Format/Info : Audio Video Interleave
File size : 1.37 GiB
Duration : 1 h 44 min
Overall bit rate : 1 867 kb/s
Writing application : VirtualDubMod 1.5.10.2 (build 2540/release)
Writing library : VirtualDubMod build 2540/release

Video
ID : 0
Format : MPEG-4 Visual
Format profile : Advanced [emailprotected]/* */
Format settings, BVOP : 2
Format settings, QPel : No
Format settings, GMC : No warppoints
Format settings, Matrix : Default (MPEG)
Codec ID : XVID
Codec ID/Hint : XviD
Duration : 1 h 44 min
Bit rate : 1 664 kb/s
Width : 720 pixels
Height : 272 pixels
Display aspect ratio : 2.647
Frame rate : 30.000 FPS
Color space : YUV
Chroma subsampling : 4:2:0
Bit depth : 8 bits
Scan type : Progressive
Compression mode : Lossy
language : russian
Bits/(Pixel*Frame) : 0.283
Stream size : 1.22 GiB (89%)
Writing library : XviD 1.2.1 (UTC 2008-12-04)

Audio
ID : 1
Format : AC-3
Format/Info : Audio Coding 3
Format settings, Endianness : Big
Codec ID : 2000
Duration : 1 h 44 min
Bit rate mode : Constant
Bit rate : 192 kb/s
Channel(s) : 2 channels
Channel positions : Front: L R
Sampling rate : 48.0 kHz
Frame rate : 31.250 FPS (1536 spf)
Bit depth : 16 bits
Compression mode : Lossy
Stream size : 144 MiB (10%)
Alignment : Split accross interleaves
Interleave, duration : 33 ms (1.00 video frame)
Interleave, preload duration : 500 ms
Service kind : Complete Main

related torrents

Torrent name

health leech seeds Size
 


comments (0)

Main Menu

 

script data-cfasync="false" src="//d2ghscazvn398x.cloudfront.net/?cshgd=690275">